+ ShareSpark.net »  :::: Dubbed Zone (Dubbed English in Hindi) » English Movies Dubbed in Hindi » High Resolution Movies
|- Bad Boys (1995) REMASTERED BluRay 1080p x264 Dual Audio [Hindi DD 5.1-English DTS 5.1]ESubs...Hon3y


Redmi 6A

Bad Boys (1995) REMASTERED BluRay 1080p x264 Dual Audio [Hindi DD 5.1-English DTS 5.1]ESubs...Hon3y

0 Members and 1 Guest are viewing this topic.

December 31, 2017, 01:11:32 AM
  • Global Moderator
  • Legend Member
  • *****
  • Topic Author
  • Thank You: 11203
  • Reputation: 2245
  • Activity:
    100%
  • Country: in
  • Posts: 5472
  • Topics: 4516
  • Join Date: Jan 2014
  • ıllıllı ѕмoĸιng ιѕ good ғor нealтн ıllıllı :)
Bad Boys (1995) REMASTERED BluRay 1080p x264 Dual Audio [Hindi DD 5.1-English DTS 5.1]ESubs...Hon3y



Quote
General
Format                                   : Matroska
Format version                           : Version 4 / Version 2
File size                                : 5.80 GiB
Duration                                 : 1 h 58 min
Overall bit rate                         : 6 992 kb/s
Movie name                               : Bad Boys REMASTERED---Pasha@Hon3yHD

Video
Format                                   : AVC
Format/Info                              : Advanced Video Codec
Format profile                           : [email protected]
Format settings, CABAC                   : Yes
Format settings, RefFrames               : 4 frames
Codec ID                                 : V_MPEG4/ISO/AVC
Duration                                 : 1 h 58 min
Bit rate                                 : 5 000 kb/s
Width                                    : 1 920 pixels
Height                                   : 1 040 pixels
Display aspect ratio                     : 1.85:1
Frame rate mode                          : Constant
Frame rate                               : 23.976 (24000/1001) FPS
Color space                              : YUV
Chroma subsampling                       : 4:2:0
Bit depth                                : 8 bits
Scan type                                : Progressive
Bits/(Pixel*Frame)                       : 0.104
Stream size                              : 4.15 GiB (71%)
Title                                    : Bad Boys REMASTERED---Pasha@Hon3yHD

Audio 1
Format                                   : AC-3
Format/Info                              : Audio Coding 3
Format settings, Endianness              : Big
Codec ID                                 : A_AC3
Duration                                 : 1 h 58 min
Bit rate mode                            : Constant
Bit rate                                 : 448 kb/s
Channel(s)                               : 6 channels
Channel positions                        : Front: L C R, Side: L R, LFE
Sampling rate                            : 48.0 kHz
Frame rate                               : 31.250 FPS (1536 SPF)
Bit depth                                : 16 bits
Compression mode                         : Lossy
Delay relative to video                  : 1 s 800 ms
Stream size                              : 381 MiB (6%)
Title                                    : Hindi---Pasha@Hon3yHD
Language                                 : Hindi
Service kind                             : Complete Main
Default                                  : Yes
Forced                                   : Yes

Audio 2
Format                                   : DTS
Format/Info                              : Digital Theater Systems
Mode                                     : 16
Format settings, Endianness              : Big
Codec ID                                 : A_DTS
Duration                                 : 1 h 58 min
Bit rate mode                            : Constant
Bit rate                                 : 1 509 kb/s
Channel(s)                               : 6 channels
Channel positions                        : Front: L C R, Side: L R, LFE
Sampling rate                            : 48.0 kHz
Frame rate                               : 93.750 FPS (512 SPF)
Bit depth                                : 24 bits
Compression mode                         : Lossy
Stream size                              : 1.25 GiB (22%)
Title                                    : English---Pasha@Hon3yHD
Language                                 : English
Default                                  : No

SubTitle
Format                                   : PGS
Muxing mode                              : zlib
Codec ID                                 : S_HDMV/PGS
Codec ID/Info                            : Picture based subtitle format used on BDs/HD-DVDs
Duration                                 : 1 h 54 min
Bit rate                                 : 16.6 kb/s
Count of elements                        : 3318
Stream size                              : 13.5 MiB (0%)
Title                                    : English PGS---Pasha@Hon3yHD
Language                                 : English
Default                                  : Yes

SubTitle
Format                                   : PGS
Muxing mode                              : zlib
Codec ID                                 : S_HDMV/PGS
Codec ID/Info                            : Picture based subtitle format used on BDs/HD-DVDs
Duration                                 : 1 h 57 min
Bit rate                                 : 19.9 kb/s
Count of elements                        : 3945
Stream size                              : 16.8 MiB (0%)
Title                                    : English SDH PGS---Pasha@Hon3yHD
Language                                 : English
Default                                  : No

SubTitle SRT Format Included

Chapters Menu
00:00:00.000                             : en:00:00:00.000
00:05:07.474                             : en:00:05:07.474
00:12:01.971                             : en:00:12:01.971
00:17:38.099                             : en:00:17:38.099
00:23:33.203                             : en:00:23:33.203
00:31:31.765                             : en:00:31:31.765
00:41:09.133                             : en:00:41:09.133
00:47:35.311                             : en:00:47:35.311
00:54:37.357                             : en:00:54:37.357
01:04:05.675                             : en:01:04:05.675
01:13:49.800                             : en:01:13:49.800
01:20:21.483                             : en:01:20:21.483
01:27:58.523                             : en:01:27:58.523
01:34:54.272                             : en:01:34:54.272
01:43:09.308                             : en:01:43:09.308
01:50:51.353                             : en:01:50:51.353

:ss:







:download:

Quote






File Leeched & Uploaded From




Don't walk as you are king, walk as you don't care who the king is....!!
Never argue with an idiot. They drag you down to their level and then beat you with experience?

Share this topic on FacebookShare this topic on GoogleShare this topic on MySpaceShare this topic on TwitterShare this topic on Yahoo

« Last Edit: September 05, 2018, 04:24:09 AM by Rάήνίјάч1234 »



Don't walk as you are king, walk as you don't care who the king is....!!

Tags:
 

Related Topics





Back to top
Mine Survival APK | Kate Bosworth | Ava Addams mp4